Sinopse:
Su Ki-Er, foi homem rico durante a dinastia Qing, perde sua fortuna e reputação como resultado de uma conspiração contra ele. Após ser forçado a sair às ruas, Su dedica sua vida às artes marciais e ressurge como um herói patriótico conhecido como o “Rei dos Mendigos”.
Diretor: Woo-ping Yuen
Escritor: Chi-long To
Data de lançamento: 9 Fevereiro 2010 (China)
Gênero: Ação | Drama | Historia
Elenco:
Man Cheuk Chiu … Su Can / Su Qi-Er
Xun Zhou … Yuan Ying
Michelle Yeoh … Sister Yu
Xiaogang Feng … Pickpocket
Andy On … Yuan Lie
Luxia Jiang … Iron Maiden
Chia Hui Liu … Bearded Man
Ka-Yan Leung … Su Wan-Kun
Will Liu … Iron Lad (as Genghong Liu)
Jay Chou … God of Wushu / Drunken God
Xiaodong Guo … Ma Qingfeng
Cung Le … Militia Leader
Jacky Heung … General
David Carradine … Anton
General Complete name : True.Legend.2010.DVDRip.XviD.AC3-ViSiONTrue.Legend.2010.DVDRip.XviD.AC3-ViSiON.avi
Format : AVI
Format/Info : Audio Video Interleave
File size : 1.45 GiB
Duration : 1h 54mn
Overall bit rate : 1 814 Kbps
Writing application : VirtualDubMod 1.5.10.2 (build 2542/release)
Writing library : VirtualDubMod build 2542/release

Video
ID : 0
Format : MPEG-4 Visual
Format profile : Advanced Simple@L5
Format settings, BVOP : Yes
Format settings, QPel : No
Format settings, GMC : No warppoints
Format settings, Matrix : Custom
Muxing mode : Packed bitstream
Codec ID : XVID
Codec ID/Hint : XviD
Duration : 1h 54mn
Bit rate : 1 612 Kbps
Width : 720 pixels
Height : 304 pixels
Display aspect ratio : 2.35:1
Frame rate : 25.000 fps
Resolution : 8 bits
Colorimetry : 4:2:0
Scan type : Progressive
Bits/(Pixel*Frame) : 0.295
Stream size : 1.29 GiB (89%)
Writing library : XviD 1.2.1 (UTC 2008-12-04)

Audio
ID : 1
Format : AC-3
Format/Info : Audio Coding 3
Format_Settings_ModeExtension : CM (complete main)
Codec ID : 2000
Duration : 1h 54mn
Bit rate mode : Constant
Bit rate : 192 Kbps
Channel(s) : 2 channels
Channel positions : Front: L R
Sampling rate : 48.0 KHz
Stream size : 157 MiB (11%)
Alignment : Split accross interleaves
Interleave, duration : 40 ms (1.00 video frame)
Interleave, preload duration : 500 ms

DOWNLOAD rapidshare

download 1 -download 2

download 3  –download 4 -download 5

 
 download 6   –download 7  –download 8

BrasilseriesHD Não apoia a Pirataria e não faz Rips e Ups visando lucro pessoal e nem para o grupo então você é o único responsável por este arquivo em seu computador.

PIRATARIA É CRIME E DÁ CADEIA.DENUNCIE 0800 771 2627